+9/-13

Хочу посмотретьУбрать отметку

Однажды в России.(Сезон‑5) 2017

ТВ-шоу, Комедия, SATRip, Без перевода

Поделился: prostor

Год выхода: 2017

Возрастные ограничения: 16+

Год выпуска: 2017
Страна: Россия
Жанр: ТВ‑шоу, юмор
Продолжительность: 6 х ~0:48:00 Телеканал: ТНТ Режиссер: Роман Новиков В ролях: Игорь Ласточкин, Ирина Чеснокова, Михаил Стогниенко, Давид Цаллаев, Заур Байцаев, Теймураз Тания, Екатерина Моргунова, Максим Киселёв, Денис Дорохов, Александр Пташенчук, Азамат Мусагалиев, Ольга Картункова Описание: Самое острое сатирическое шоу на отечественном телевидении возвращается с новыми выпусками. Все, что нужно знать о России и чего никогда не покажут в новостях. Московский ОМОН ловит в центре столицы покемонов, российские ученые впервые в мире провели операцию по пересадке сознания, в России снимут адаптацию сериала «Игры престолов» и откроют филиал школы магов Хогвардс. Все это и многое другое в новых выпусках «Однажды в России», — шоу, сделанном на невероятном для российского телевидения техническом уровне, и продолжающем традицию сатиры и социального юмора на ТНТ. Качество: SATRip
формат: AVI
Видео: XviD, 720х400, (16:9), 1800kbps, 25.000fps
Аудио: MPEG Layer 3, 192kbps, 2ch, 48.0 KHz

Рассказать друзьям

Качество видео: SATRip

Перевод: Без перевода

Format : MPEG-4 Visual
Format profile : Advanced Simple@L5
Format settings, BVOP : 1
Format settings, QPel : No
Format settings, GMC : No warppoints
Format settings, Matrix : Default (H.263)
Codec ID : XVID
Codec ID/Hint : XviD
Duration : 49mn 33s
Bit rate : 1 728 Kbps
Width : 720 pixels
Height : 400 pixels
Display aspect ratio : 16:9
Frame rate : 25.000 fps
Color space : YUV
Chroma subsampling : 4:2:0
Bit depth : 8 bits
Scan type : Progressive
Compression mode : Lossy
Bits/(Pixel*Frame) : 0.240
Stream size : 613 MiB (89%)
Writing library : XviD 67
Format : MPEG Audio
Format version : Version 1
Format profile : Layer 3
Mode : Joint stereo
Codec ID : 55
Codec ID/Hint : MP3
Duration : 49mn 33s
Bit rate mode : Constant
Bit rate : 192 Kbps
Channel(s) : 2 channels
Sampling rate : 48.0 KHz
Compression mode : Lossy
Stream size : 68.1 MiB (10%)
Alignment : Aligned on interleaves
Interleave, duration : 24 ms (0.60 video frame)
Interleave, preload duration : 504 ms

Кадры

Рекомендации

Обсуждение в Тёрке

Вы должны быть авторизованы, чтобы оставлять комментарии


prostor

тебя кто то заставляет «это говно» смотреть? Поставил минус и иди дальше.


LobsterMo
Задолбали это говно сюда лить.

Всего 2 комментария в «Тёрке»